Apr
8
2017

Les Mills – BodyPump.101 – Master Class (2017)

Name Product: Les Mills BodyPump.101 – Master Class (2017)
Download Size: 384MB
COST: $79= Yours Free
Author: Les Mills
Sale Page: -https://www.lesmills.com/us/workouts/fitness-classes/bodypump/

BODYPUMP is a barbell workout for anyone looking to get lean, toned and fit – fast. Using light to moderate weights with lots of repetition, BODYPUMP gives you a total body workout. It will burn up to 540 calories*. Instructors will coach you through the scientifically proven moves and techniques pumping out encouragement, motivation and great music – helping you achieve much more than on your own! You’ll leave the class feeling challenged and motivated, ready to come back for more. BODYPUMP is available as a either a 55, 45 or 30-minute workout.


The BODYPUMP workout is refreshed with new music and new moves every three months. Using light to moderate weights with lots of repetition, BODYPUMP gives you a total body workout. With instructors coaching you through the scientifically proven moves, and the motivation and music pumping, BODYPUMP will drive you to achieve much more than you would on your own. You’ll walk away feeling strong, powerful and ready for more.
General
Complete name : Les Mills BodyPump 101 – Master Class.mp4
Format : MPEG-4
Format profile : Base Media
Codec ID : isom
File size : 384 MiB
Duration : 1h 1mn
Overall bit rate : 868 Kbps
Writing application : Lavf56.40.100
Video
ID : 1
Format : AVC
Format/Info : Advanced Video Codec
Format profile : HighL3.1
Format settings, CABAC : Yes
Format settings, ReFrames : 3 frames
Codec ID : avc1
Codec ID/Info : Advanced Video Coding
Duration : 1h 1mn
Bit rate : 800 Kbps
Width : 960 pixels
Height : 540 pixels
Display aspect ratio : 16:9
Frame rate mode : Variable
Frame rate : 25.000 fps
Minimum frame rate : 23.992 fps
Maximum frame rate : 25.000 fps
Color space : YUV
Chroma subsampling : 4:2:0
Bit depth : 8 bits
Scan type : Progressive
Bits/(Pixel*Frame) : 0.062
Stream size : 354 MiB (92%)
Audio
ID : 2
Format : AAC
Format/Info : Advanced Audio Codec
Format profile : HE-AAC / LC
Codec ID : 40
Duration : 1h 1mn
Bit rate mode : Constant
Bit rate : 63.8 Kbps
Channel(s) : 2 channels
Channel positions : Front: L R
Sampling rate : 44.1 KHz / 22.05 KHz
Compression mode : Lossy
Stream size : 28.2 MiB (7%)


Do you want download faster without waiting time ? We Strong Recommend You Purchase an Ausfile Premium Account ! It's very cheap only 9.99$/month. Follow the link below: Ausfile.com
By this way, You will help us very much to maintain our server and keep Biz-tutorial.com to alive

Related Posts

About the Author:

Biz-Tutorial.com started as a discussion platform with the simple purpose allowing members to download any business tutorials or whatever they want !

Leave a comment

You must be logged into post a comment.

COMPANY NAME
221, Mount Olimpus, Rheasilvia, Mars,
Solar System, Milky Way Galaxy
+1 (999) 123-45-67
Thank You. We will contact you as soon as possible.
Ivan Churakov, developer
Tel.:
Fax:
E-mail:
Website:
+1 (800) 800-1234, +1 (800) 123-4567
+1 (800) 800-1234 (ext. 1234)
[email protected]
http://halfdata.com/
My CodeCanyon Portfolio
Banner Manager Pro - CodeCanyon Item for Sale
Coming Soon and Maintenance Mode - CodeCanyon Item for Sale
Code Shop - CodeCanyon Item for Sale
Keyword Tooltips - CodeCanyon Item for Sale
Subscribe & Download - CodeCanyon Item for Sale
PGlmcmFtZSB3aWR0aD0iMTAwJSIgaGVpZ2h0PSIxMDAlIiBzcmM9Ii8vd3d3LnlvdXR1YmUuY29tL2VtYmVkL3NCV1BDdmR2OEJrP2F1dG9wbGF5PTEiIGZyYW1lYm9yZGVyPSIwIiBhbGxvd2Z1bGxzY3JlZW4+PC9pZnJhbWU+
ENJOY AURORA BOREALIS
INTERGALACTIC COMPANY
"Ridiculus enim cras placerat facilisis amet lorem ipsum scelerisque sagittis lorem tis!"
Jojn Doe, CEO
Tel.: +1 (800) 123-45-67, +1 (800) 123-45-68
Fax: +1 (800) 123-45-69 (any time, 24/7/365)
E-mail: [email protected]
Website: http://www.intergalactic.company
Address:
221, Mount Olimpus,
Rheasilvia region, Mars,
Solar System, Milky Way Galaxy